Printable Version of Topic

Click here to view this topic in its original format

Metal Area - Extreme Music Portal _ New Releases _ Primitive Man - Insurmountable (2022)

Posted by: kefka May 13 2022, 13:55:47

https://metalarea.org/images/audiocovers/2022_May/acov_tid364733.jpg

*Artist: https://metalarea.org/forum/index.php?showtopic=327978
*Album: Insurmountable
*Year: 2022
*Genre: Sludge/Doom/Death Metal
*Country: United States
*Format: mp3@CBR320kbps
*Size: 88MB

Tracklist:
1.This Life 12:24
2.Boiled 07:17
3.Cage Intimacy 11:02
4.Quiet 07:44
******************************
Total playing time: 38:27

https://primitivemandoom.bandcamp.com/

Technical info

Input File: 03-Cage Intimacy sample.mp3
Channels : 2
Sample Rate : 44100
Precision : 16-bit
Duration : 00:03:01.82 = 8018350 samples = 13636.6 CDDA sectors
File Size : 7.27M
Bit Rate : 320k
Sample Encoding: MPEG audio (layer I, II or III)
Comments :
Title=Cage Intimacy
Artist=Primitive Man
Album=Insurmountable
Tracknumber=03
Year=2022
Genre=Sludge/Doom Metal



[ Hidden Text ]

Posted by: gutturalos May 13 2022, 22:08:24

thanks

Posted by: vosmidesijatye May 14 2022, 06:02:59

Чот никогда не фпирали, а тут прямо хорошечно по первым ащущениям - мрачно, сыро, грязно, нигилистишна - кароч, как нада, пацаны.

Паслухам целиком.

Powered by Invision Power Board
© Invision Power Services