Printable Version of Topic

Click here to view this topic in its original format

Metal Area - Extreme Music Portal _ New Releases _ B.A.R.F. - Région Sauvage (2022)

Posted by: Samaritianin May 13 2022, 14:01:43

https://metalarea.org/images/audiocovers/2022_May/acov_tid364734.jpg

*Artist: B.A.R.F.
*Album: Région Sauvage
*Year: 2022
*Genre: Thrash Metal/Crossover
*Country: Canada
*Format: mp3@CBR320kbps
*Size: 74MB

Tracklist:
1. Bipède à plomb
2. Comme Chartrand
3. Dans le rouge de tes yeux
4. Québec Rock
5. Abysse
6. Illégal
7. S’en sortir
8. Colère de dieu
9. Y va tu toujours y avoir
10. Terricide
11. Un musicien parmi tant d’autres
******************************
Total playing time: 30:12

https://barfmtl.bandcamp.com/releases
https://www.facebook.com/barfmtl

Extended info
Dominic Lapointe Bass
See also: Augury, First Fragment, Gorguts (live), Nader Sadek (live), Atheretic, ex-Catuvolcus, ex-Satanized, Humanoid (Can), Teramobil, ex-Beyond Creation, ex-Gore, ex-Negativa, ex-Quo Vadis (live)
Denis Lepage Guitars, Bass
See also: ex-Groovy Aardvark
Marc Vaillancourt Vocals
See also: ex-Les Ékorchés, ex-Black Cloud
Carlos Araya Drums (2012-present)
See also: Anonymus, ex-Spelldown


Technical info

Input File: 11 - Un musicien parmi tant d\'autres.mp3
Channels : 2
Sample Rate : 44100
Precision : 16-bit
Duration : 00:04:21.00 = 11510100 samples = 19575 CDDA sectors
File Size : 11.2M
Bit Rate : 344k
Sample Encoding: MPEG audio (layer I, II or III)
Comments :
Title=Un musicien parmi tant d'autres
Artist=B.A.R.F.
Album=Région Sauvage
Tracknumber=11
Year=2022-05-13
Genre=Rock
Discnumber=1



[ Hidden Text ]

Powered by Invision Power Board
© Invision Power Services