Printable Version of Topic

Click here to view this topic in its original format

Metal Area - Extreme Music Portal _ New Releases _ Apocalypse Preparation & Starvation Entity - Razor Worship [split] (2021)

Posted by: necroscum May 13 2022, 14:55:23

https://metalarea.org/images/audiocovers/2022_May/acov_tid364739.png

*Artist: Apocalypse Preparation & Starvation Entity
*Album: Razor Worship [split]
*Year: 2021
*Genre: Raw Black Metal | Raw Black Metal/Noise
*Country: Australia | Canada
*Format: mp3@CBR320kbps
*Size: 63MB

Tracklist:
Apocalypse Preparation:
1. I 01:16
2. II 02:25
3. III 02:38
4. IV 03:20
5. V 03:04
Starvation Entity:
6. Illusion of Doubles 01:37
7. Effigy Crawling 02:35
8. Rotting Gold Armor 02:01
9. Swollen Altar 02:56
10. Locusts With Scorpion Tails 04:36
******************************
Total playing time: 26:28

https://apocalypse-preparation.bandcamp.com/album/razor-worship
https://www.youtube.com/watch?v=n0oME9a31T0

Technical info

Input File: 02. II.mp3
Channels : 2
Sample Rate : 44100
Precision : 16-bit
Duration : 00:02:25.90 = 6434234 samples = 10942.6 CDDA sectors
File Size : 5.97M
Bit Rate : 327k
Sample Encoding: MPEG audio (layer I, II or III)
Comments :
Title=II
Artist=Apocalypse Preparation
Album=Razor Worship
Tracknumber=2
Year=2021



[ Hidden Text ]

Powered by Invision Power Board
© Invision Power Services