Printable Version of Topic

Click here to view this topic in its original format

Metal Area - Extreme Music Portal _ New Releases _ Homeskin & Moldmouth - Homeskin/Moldmouth [split] (2022)

Posted by: necroscum May 13 2022, 15:09:17

https://metalarea.org/images/audiocovers/2022_May/acov_tid364740.jpg

*Artist: Homeskin & Moldmouth
*Album: Homeskin/Moldmouth [split]
*Year: 2022
*Genre: Avant-Garde Black Metal/Grindcore | Avant-Garde Black Metal
*Country: United States | United States
*Format: mp3@CBR320kbps
*Size: 47MB

Tracklist:
Homeskin:
1. Time as Addiction 04:11
2. Fungal Sweets 03:07
3. Warped Lids 03:13
Moldmouth:
4. Extruding.psychic.objects.into.the.material.universe 09:32
******************************
Total playing time: 20:03

https://homeskin.bandcamp.com/album/homeskin-moldmouth

Technical info

Input File: 03. Warped Lids.mp3
Channels : 2
Sample Rate : 44100
Precision : 16-bit
Duration : 00:03:13.68 = 8541376 samples = 14526.1 CDDA sectors
File Size : 7.93M
Bit Rate : 327k
Sample Encoding: MPEG audio (layer I, II or III)
Comments :
Title=Warped Lids
Artist=Homeskin
Album=Homeskin / moldmouth
Tracknumber=3
Year=2022



[ Hidden Text ]

Powered by Invision Power Board
© Invision Power Services