Printable Version of Topic

Click here to view this topic in its original format

Metal Area - Extreme Music Portal _ New Releases _ Oxidised Razor & Fluids - Deceased/Smile And The World Smiles With You [split] (2021)

Posted by: kefka May 13 2022, 15:19:08

https://metalarea.org/images/audiocovers/2022_May/acov_tid364741.jpg

*Artist: https://metalarea.org/forum/index.php?showtopic=66187 & Fluids
*Album: Deceased/Smile And The World Smiles With You [split]
*Year: 2021
*Genre: Death Metal/Goregrind | Brutal Death Metal/Grindcore
*Country: Mexico | United States
*Format: mp3@CBR320kbps
*Size: 50MB

Tracklist:
Oxidised Razor:
1.Deceased 04:06
2.Cannibalism 03:16
3.Visceras Corroidas (Krankhaft Cover) 01:07
FLuids:
4.Bound 01:54
5.Gagged 01:30
6.Injected 05:16
******************************
Total playing time: 17:09

https://fluids-gurglinggore.bandcamp.com/album/split-w-oxidised-razor

Extended info
+Scans


Technical info

Input File: 02 - Cannibalism.mp3
Channels : 2
Sample Rate : 44100
Precision : 16-bit
Duration : 00:03:19.12 = 8781148 samples = 14933.9 CDDA sectors
File Size : 8.40M
Bit Rate : 338k
Sample Encoding: MPEG audio (layer I, II or III)
Comments :
Title=Cannibalism
Artist=Oxidised Razor
Album=Deceased / Smile and the World Smiles with You
Tracknumber=02
Year=2021
Genre=Goregrind



[ Hidden Text ]

Powered by Invision Power Board
© Invision Power Services