Printable Version of Topic

Click here to view this topic in its original format

Metal Area - Extreme Music Portal _ New Releases _ Primordial Serpent - Tales From The Northern Vastlands (2022)

Posted by: necroscum May 13 2022, 15:27:31

https://metalarea.org/images/audiocovers/2022_May/acov_tid364743.jpg

*Artist: Primordial Serpent
*Album: Tales From The Northern Vastlands
*Year: 2022
*Genre: Black Metal
*Country: Canada
*Format: mp3@CBR320kbps
*Size: 76MB

Tracklist:
1. Red River Uprising 07:49
2. Enslaved by Followers of God 04:28
3. Burning into the Night 04:52
4. Lies of Benevolence 04:51
5. Spirits of Unmarked Graves 05:38
6. Guiding Lights in Darkened Skies 05:27
******************************
Total playing time: 33:05

https://www.facebook.com/PrimordialSerpentBlackMetal/
https://www.instagram.com/accounts/login/?next=/primordial_serpent_blackmetal/
https://soundcloud.com/primordialserpent
https://primordialserpent.bandcamp.com/album/tales-from-the-northern-vastlands
https://www.youtube.com/watch?v=MQiq5TGbgkA

Technical info

Input File: 05. Spirits of Unmarked Graves.mp3
Channels : 2
Sample Rate : 44100
Precision : 16-bit
Duration : 00:05:38.36 = 14921500 samples = 25376.7 CDDA sectors
File Size : 13.6M
Bit Rate : 321k
Sample Encoding: MPEG audio (layer I, II or III)
Comments :
Title=Spirits of Unmarked Graves
Artist=Primordial Serpent
Album=Tales From the Northern Vastlands
Tracknumber=1
Year=2022



[ Hidden Text ]

Powered by Invision Power Board
© Invision Power Services