Printable Version of Topic

Click here to view this topic in its original format

Metal Area - Extreme Music Portal _ New Releases _ Meathook - Manipulating The Human Form [ep] (2022)

Posted by: necroscum May 13 2022, 16:01:41

https://metalarea.org/images/audiocovers/2022_May/acov_tid364748.jpg

*Artist: Meathook
*Album: Manipulating The Human Form [ep]
*Year: 2022
*Genre: Brutal Death Metal
*Country: United States
*Format: mp3@VBR252kbps
*Size: 83MB

Tracklist:
01. Formless Entity 04:07
02. Among The Weakest Breath 04:19
03. Excruciating Methods 03:41
04. Manipulating The Human Form 04:19
05. Maggot Filled Resurrection 03:30
06. Amputated God (Bonus Track) 02:57
07. Worm Infested (Bonus Track) 04:05
08. Cryptic, Cosmic Disintegration (Bonus Track) 03:32
09. Bound, Gagged And Raped With A Knife (Bonus Track) 04:05
10. Realm Of Decay (Bonus Track) 03:24
11.Inflicted Torture (Bonus Track) 03:04
12. Prepare The Tools Of Torture (Bonus Track) 03:44
******************************
Total playing time: 44:47

https://myspace.com/meathook6
https://www.facebook.com/meathook6666
https://www.reverbnation.com/meathook6666
https://meathook1.bandcamp.com/album/manipulating-the-human-form-ep
https://www.youtube.com/watch?v=12cwNELCib4

Extended info
Scene CD-rip


Technical info

Input File: 02-meathook-among_the_weakest_breath.mp3
Channels : 2
Sample Rate : 44100
Precision : 16-bit
Duration : 00:04:18.23 = 11387767 samples = 19367 CDDA sectors
File Size : 9.06M
Bit Rate : 281k
Sample Encoding: MPEG audio (layer I, II or III)
Comments :
Title=Among the Weakest Breath
Artist=Meathook
Album=Manipulating the Human Form
Tracknumber=2
Year=2022
Genre=Death Metal
Discnumber=1



[ Hidden Text ]

Posted by: oathzine May 15 2022, 10:22:01

Flac

[ Hidden Text ]

Powered by Invision Power Board
© Invision Power Services