Printable Version of Topic

Click here to view this topic in its original format

Metal Area - Extreme Music Portal _ New Releases _ The Faceless Hunter - One Minute To Midnight (2022)

Posted by: Samaritianin May 13 2022, 16:17:13

https://metalarea.org/images/audiocovers/2022_May/acov_tid364749.jpg

*Artist: The Faceless Hunter
*Album: One Minute To Midnight
*Year: 2022
*Genre: Melodic Death/Dark Metal
*Country: Russian Federation
*Format: mp3@CBR320kbps
*Size: 209MB

Tracklist:
1. One Minute to Midnight 03:29
2. Dead Heaven 05:46
3. Sacred Blood 05:31
4. Voice Within 04:33
5. Shadows 03:11
6. Tragic Kingdom 04:58
7. Demons 06:34
8. The Ensign of Freedom 05:37
9. The Edge of Emptiness 05:39
10. Минута до Полуночи 03:29
11. Грань Пустоты 05:39
12. Мертвое Небо 05:46
13. Святая Кровь 05:27
14. Голос Сердца 04:33
15. Тени 03:10
16. Царствие Слез 04:58
17. Знамя Свободы 05:37
18. Демоны 06:34
******************************
Total playing time: 1:30:31

https://thefacelesshunter.bandcamp.com/album/one-minute-to-midnight
https://www.facebook.com/thefacelesshunter56/

Extended info
Dmitry Shlutov Bass
Alexander Eshkinin Guitars
Denis Antokhin Guitars, Vocals
Elena Komlatskaya Keyboards
Vladislav Ermolaev Vocals (backing), Drums


Technical info

Input File: 07 - Tragic Kingdom.mp3
Channels : 2
Sample Rate : 44100
Precision : 16-bit
Duration : 00:04:58.00 = 13141800 samples = 22350 CDDA sectors
File Size : 12.0M
Bit Rate : 323k
Sample Encoding: MPEG audio (layer I, II or III)
Comments :
Title=Tragic Kingdom
Artist=The Faceless Hunter
Album=One Minute to Midnight
Tracknumber=7
Year=2022-04-29
Genre=Metal
Discnumber=1



[ Hidden Text ]

Posted by: Andrew May 14 2022, 04:10:33

22.gif Капец, полтора часа такого дешевого примитивизма....

Powered by Invision Power Board
© Invision Power Services