Printable Version of Topic

Click here to view this topic in its original format

Metal Area - Extreme Music Portal _ New Releases _ Geste Futile - Damnatio Memoriae (2022)

Posted by: Samaritianin May 13 2022, 18:17:49

https://metalarea.org/images/audiocovers/2022_May/acov_tid364756.jpg

*Artist: Geste Futile
*Album: Damnatio Memoriae
*Year: 2022
*Genre: Black Metal
*Country: France
*Format: mp3@CBR320kbps
*Size: 116MB

Tracklist:
1. Shards 02:52
2. Hatred 07:39
3. Abyss 09:18
4. Purgatory 05:24
5. Escape 10:44
6. Void 14:24
******************************
Total playing time: 50:21

https://gestefutile.bandcamp.com/album/damnatio-memoriae

Extended info
Kraampus Unknown


Technical info

Input File: Geste Futile - Damnatio Memoriae - 05 Escape.mp3
Channels : 2
Sample Rate : 44100
Precision : 16-bit
Duration : 00:10:44.24 = 28411028 samples = 48318.1 CDDA sectors
File Size : 25.9M
Bit Rate : 322k
Sample Encoding: MPEG audio (layer I, II or III)
Comments :
Title=Escape
Artist=Geste Futile
Album=Damnatio Memoriae
Tracknumber=5
Year=2022



[ Hidden Text ]

Posted by: rimfrost May 13 2022, 21:06:19


Powered by Invision Power Board
© Invision Power Services