Printable Version of Topic

Click here to view this topic in its original format

Metal Area - Extreme Music Portal _ New Releases _ Collidor - Collidor (2022)

Posted by: kefka May 14 2022, 04:54:45

https://metalarea.org/images/audiocovers/2022_May/acov_tid364765.jpg

*Artist: Collidor
*Album: Collidor
*Year: 2022
*Genre: Heavy Metal
*Country: Germany
*Format: mp3@CBR320kbps
*Size: 83MB

Tracklist:
1.Nephophobia 04:34
2.Hero of Destruction 02:35
3.Cryostorm 03:08
4.Doctor Death 03:01
5.False Gods 03:16
6.She 03:02
7.Last Stand 04:27
8.Decapitated Queen 04:36
9.Black Gold 02:44
10.Break Out 05:00
******************************
Total playing time: 36:23

https://collidor.bandcamp.com/releases

Technical info

Input File: 02 - Hero Of Destruction.mp3
Channels : 2
Sample Rate : 44100
Precision : 16-bit
Duration : 00:02:35.07 = 6838763 samples = 11630.5 CDDA sectors
File Size : 6.30M
Bit Rate : 325k
Sample Encoding: MPEG audio (layer I, II or III)
Comments :
Title=Hero Of Destruction
Artist=Collidor
Album=Collidor
Tracknumber=02
Year=2022
Genre=Heavy Metal



[ Hidden Text ]

Posted by: Amadeus May 14 2022, 12:15:27

после Колидора ждем группу Тубарет, Ихний и Друшлаг

Posted by: Daecadance May 14 2022, 12:49:36

, а в нем rezetka

Posted by: MetalgeR May 14 2022, 16:37:00

[b]Amadeus[Дуршлаг наверное

Posted by: RUSP73 May 14 2022, 17:24:12

ЦИТАТА(MetalgeR @ May 14 2022, 18:37:00) *
[b]Amadeus[Дуршлаг наверное

А Тубарет и Ихний не напряг? 1488.gif

Posted by: JPV May 15 2022, 06:44:19

Калинизация и Япон Мафонский ))

Posted by: batyr May 16 2022, 08:14:01

каклета, сместитель и брутерброд

Powered by Invision Power Board
© Invision Power Services