Printable Version of Topic

Click here to view this topic in its original format

Metal Area - Extreme Music Portal _ New Releases _ Chasin' Voorhees - Crystal Lake (2022)

Posted by: kefka May 14 2022, 05:07:43

https://metalarea.org/images/audiocovers/2022_May/acov_tid364766.jpg

*Artist: Chasin' Voorhees
*Album: Crystal Lake
*Year: 2022
*Genre: Death/Groove Metal
*Country: United Kingdom
*Format: mp3@CBR320kbps
*Size: 163MB

Tracklist:
1.Down Underneath 06:04
2.Packanack 07:40
3.Haven 05:04
4.Death Curse 04:40
5.Pinehurst 05:16
6.Kill or be Killed 06:25
7.Necromantic 05:44
8.Lazarus 06:04
9.Descendant 05:55
10.Grendel 06:00
11.Contra 05:41
12.Crystal Lake 06:15
13.Friday the 13th 01:35
******************************
Total playing time: 1:12:23

https://chasinvoorhees.bandcamp.com/album/crystal-lake

Technical info

Input File: 04 - Death Curse.mp3
Channels : 2
Sample Rate : 44100
Precision : 16-bit
Duration : 00:04:40.55 = 12372123 samples = 21041 CDDA sectors
File Size : 11.4M
Bit Rate : 324k
Sample Encoding: MPEG audio (layer I, II or III)
Comments :
Title=Death Curse
Artist=Chasin' Voorhees
Album=Crystal Lake
Tracknumber=04
Year=2022
Genre=Death Metal



[ Hidden Text ]

Posted by: oathzine May 17 2022, 08:24:30

Flac

[ Hidden Text ]

Powered by Invision Power Board
© Invision Power Services