Printable Version of Topic

Click here to view this topic in its original format

Metal Area - Extreme Music Portal _ New Releases _ Serapis - Vita Et Mors (2022)

Posted by: kefka May 14 2022, 05:45:27

https://metalarea.org/images/audiocovers/2022_May/acov_tid364768.jpg

*Artist: Serapis
*Album: Vita Et Mors
*Year: 2022
*Genre: Death Metal
*Country: Austria
*Format: mp3@CBR320kbps
*Size: 69MB

Tracklist:
1.Athanasy 03:53
2.The Isles of Infinity 07:55
3.Morbus Animi 04:09
4.Act of Gods 03:50
5.Avatar of Chaos 04:22
6.The Dark Abyss 06:08
******************************
Total playing time: 30:17

https://serapis97.bandcamp.com/album/vita-et-mors

Technical info

Input File: 04 - Act of Gods (feat. Vedrana Šurina).mp3
Channels : 2
Sample Rate : 44100
Precision : 16-bit
Duration : 00:03:50.70 = 10174002 samples = 17302.7 CDDA sectors
File Size : 9.51M
Bit Rate : 330k
Sample Encoding: MPEG audio (layer I, II or III)
Comments :
Title=Act of Gods (feat. Vedrana Šurina)
Artist=Serapis feat. Vedrana Šurina
Album= Vita et Mors
Tracknumber=04
Year=2022
Genre=Progressive Death Metal



[ Hidden Text ]

Posted by: dm666 May 28 2022, 07:59:42

Lossless: FLAC (tracks)
[ Hidden Text ]

Posted by: mirotvorets May 29 2022, 11:59:42

ЦИТАТА(kefka @ May 14 2022, 08:45:27) *
*Genre: Death Metal


Это интересная EP-шка. Стиль Progressive Death Metal - было бы правильнее указать. То что Австрия - насторожило и оказалось, что действительно - Graf "Ghyuliach" Gyula - выходец из Сербии. Дюже здесь национального южного колорита добавлено, уж никак не на Австрию ориентированного. Бодрый разнообразный материал, затехниченный и с атмосферой хоровода.

Posted by: WOLAND May 29 2022, 13:18:42

Ни о чем.

Powered by Invision Power Board
© Invision Power Services