Printable Version of Topic

Click here to view this topic in its original format

Metal Area - Extreme Music Portal _ New Releases _ Axeheart - Through The Seas And Time (2022)

Posted by: kefka May 14 2022, 07:16:29

https://metalarea.org/images/audiocovers/2022_May/acov_tid364772.jpg

*Artist: Axeheart
*Album: Through The Seas And Time
*Year: 2022
*Genre: Viking/Heavy Metal
*Country: Canada
*Format: mp3@CBR320kbps
*Size: 134MB

Tracklist:
01.The Blackest Heart 03:28
02.Through the Seas and Time 03:37
03.Save Us Odin 03:50
04.The Darkest Night 04:01
05.Walk This Path 02:42
06.Fight and Die 04:24
07.Veritas 06:20
08.Eye for an Eye 04:57
09.Together 04:41
10.Beast in Black 03:08
11.Rocky Mountain Vikings 03:45
12.From the Ashes 04:30
13.Sail Across the Sea 05:33
14.Rise Again 03:19
******************************
Total playing time: 58:15

Technical info

Input File: 03 - Save Us Odin.mp3
Channels : 2
Sample Rate : 44100
Precision : 16-bit
Duration : 00:03:50.08 = 10146352 samples = 17255.7 CDDA sectors
File Size : 9.42M
Bit Rate : 327k
Sample Encoding: MPEG audio (layer I, II or III)
Comments :
Title=Save Us Odin
Artist=Axeheart
Album=Through The Seas And Time
Tracknumber=03
Year=2022
Genre=Viking Heavy Metal



[ Hidden Text ]

Posted by: AHBAnep May 14 2022, 21:29:27


Весёленький Melodic Heavy/Power. Viking разве что в тематике.

Posted by: Andrew May 15 2022, 19:17:42

https://axeheart.bandcamp.com/album/through-the-seas-and-time?from=search&search_item_id=2717934642&search_item_type=a&search_match_part=%3F&search_page_id=2081830988&search_page_no=1&search_rank=2&search_sig=cc00d9372673807b087d57d619436c54

https://soundcloud.com/conspire420/axeheart-the-blackest-heart-ft-berzan-onen

Posted by: Nordavind May 16 2022, 08:33:06

Странный и невнятный альбом, как будто каждую песню разные группы исполняли.

Powered by Invision Power Board
© Invision Power Services