Printable Version of Topic

Click here to view this topic in its original format

Metal Area - Extreme Music Portal _ New Releases _ Iron Flames - Obsidian Cromlech Procreation [demo] (2021)

Posted by: sacrut May 14 2022, 08:18:13

https://metalarea.org/images/audiocovers/2022_May/acov_tid364776.jpg

*Artist: Iron Flames
*Album: Obsidian Cromlech Procreation [demo]
*Year: 2021
*Genre: Black/Death Metal
*Country: Italy
*Format: mp3@CBR320kbps
*Size: 27MB

Tracklist:
1. Timeforce Chaos 03:44
2. Obsidian Cromlech Procreation 08:20
******************************
Total playing time: 12:04

https://ironflames.bandcamp.com/

Technical info

Input File: 02. Obsidian Cromlech Procreation.mp3
Channels : 2
Sample Rate : 48000
Precision : 16-bit
Duration : 00:08:20.04 = 24002064 samples ~ 37503.2 CDDA sectors
File Size : 20.0M
Bit Rate : 320k
Sample Encoding: MPEG audio (layer I, II or III)
Comments :
Title=Obsidian Cromlech Procreation
Artist=Iron Flames
Album=Obsidian Cromlech Procreation
Tracknumber=02/02
Year=2021
Genre=Black/Death Metal



[ Hidden Text ]

Powered by Invision Power Board
© Invision Power Services