Printable Version of Topic

Click here to view this topic in its original format

Metal Area - Extreme Music Portal _ New Releases _ Genocidal Impalament - Portador De Flamas Funerarias [compilation] (2022)

Posted by: sacrut May 14 2022, 08:24:37

https://metalarea.org/images/audiocovers/2022_May/acov_tid364777.jpg

*Artist: Genocidal Impalament
*Album: Portador De Flamas Funerarias [compilation]
*Year: 2022
*Genre: Black/Death Metal
*Country: Chile
*Format: mp3@CBR320kbps
*Size: 31MB

Tracklist:
1. Genocidio Universal 01:55
2. Herética Persecución 02:03
3. Asterión 01:20
4. Parálisis Sensorial 01:52
5. Extinción Del Dogma 02:19
6. En Penumbras 01:44
7. Descendiendo 01:17
8. Alcohol 01:24
******************************
Total playing time: 13:54

https://genocidalimpalament.bandcamp.com/album/portador-de-flamas-funerarias

Technical info

Input File: 03. Genocidal Impalament - Asterión.mp3
Channels : 2
Sample Rate : 44100
Precision : 16-bit
Duration : 00:01:20.04 = 3529896 samples = 6003.22 CDDA sectors
File Size : 3.21M
Bit Rate : 320k
Sample Encoding: MPEG audio (layer I, II or III)
Comments :
Title=Asterión
Artist=Genocidal Impalament
Album=Portador de Flamas Funerarias
Tracknumber=03/08
Year=2022
Genre=Black/Death Metal



[ Hidden Text ]

Powered by Invision Power Board
© Invision Power Services