Printable Version of Topic

Click here to view this topic in its original format

Metal Area - Extreme Music Portal _ New Releases _ Old Coven - Mysteries Of The Dark Occult [ep] (2022)

Posted by: sacrut May 14 2022, 08:41:04

https://metalarea.org/images/audiocovers/2022_May/acov_tid364778.jpg

*Artist: Old Coven
*Album: Mysteries Of The Dark Occult [ep]
*Year: 2022
*Genre: Black/Thrash Metal
*Country: United States
*Format: mp3@CBR320kbps
*Size: 34MB

Tracklist:
1. Reborn in Rotting Flesh 05:26
2. Black Candles Burning 05:54
3. Unholy Mayhem 03:34
******************************
Total playing time: 14:54

https://necruzrecords.bandcamp.com/album/mysteries-of-the-dark-occult

Technical info

Input File: 02. Reborn in Rotting Flesh.mp3
Channels : 2
Sample Rate : 48000
Precision : 16-bit
Duration : 00:05:26.07 = 15651216 samples ~ 24455 CDDA sectors
File Size : 13.0M
Bit Rate : 320k
Sample Encoding: MPEG audio (layer I, II or III)
Comments :
Title=Reborn in Rotting Flesh
Artist=Old Coven
Album=Mysteries of the Dark Occult
Tracknumber=02/03
Year=2022
Genre=Black/Thrash Metal



[ Hidden Text ]

Posted by: Storky May 24 2022, 13:06:05

Enjoyable Black/Thrash Metal

Powered by Invision Power Board
© Invision Power Services