Printable Version of Topic

Click here to view this topic in its original format

Metal Area - Extreme Music Portal _ New Releases _ Astathica - Death Of Life [ep] (2022)

Posted by: Funeral Frost May 14 2022, 09:29:46

http://metalarea.org/images/audiocovers/2022_May/acov_tid364781.jpg

*Artist: Astathica
*Album: Death Of Life [ep]
*Year: 2022
*Genre: Black Metal
*Country: Netherlands
*Format: mp3@CBR320kbps
*Size: 56MB

Tracklist:
1. Musings on the Death of Life 12:19
2. Woods and Graves 04:15
3. The Insect (part III) 06:06
4. Epitaphium 01:45
******************************
Total playing time: 24:25

https://astathica.bandcamp.com/album/death-of-life

Technical info

Input File: 02 - Woods and Graves.mp3
Channels : 2
Sample Rate : 44100
Precision : 16-bit
Duration : 00:04:15.57 = 11270769 samples = 19168 CDDA sectors
File Size : 10.2M
Bit Rate : 320k
Sample Encoding: MPEG audio (layer I, II or III)
Comments :
Title=Woods and Graves
Artist=Astathica
Album=Death of Life
Tracknumber=2



[ Hidden Text ]

Powered by Invision Power Board
© Invision Power Services