Printable Version of Topic

Click here to view this topic in its original format

Metal Area - Extreme Music Portal _ New Releases _ Cairns - Keening [ep] (2022)

Posted by: Funeral Frost May 14 2022, 09:33:22

http://metalarea.org/images/audiocovers/2022_May/acov_tid364782.jpg

*Artist: Cairns
*Album: Keening [ep]
*Year: 2022
*Genre: Atomspheric/Post-Black Metal
*Country: United Kingdom
*Format: mp3@CBR320kbps
*Size: 59MB

Tracklist:
1. The Wicker Ablaze 05:33
2. When Days Grew Shorter 07:24
3. The Eternal Sea 05:42
4. Haunted 06:56
******************************
Total playing time: 25:35

https://cairnstheband.bandcamp.com/album/keening

Technical info

Input File: 01 - The Wicker Ablaze.mp3
Channels : 2
Sample Rate : 44100
Precision : 16-bit
Duration : 00:05:33.66 = 14714274 samples = 25024.3 CDDA sectors
File Size : 13.3M
Bit Rate : 320k
Sample Encoding: MPEG audio (layer I, II or III)
Comments :
Title=The Wicker Ablaze
Artist=Cairns
Album=Keening
Tracknumber=1
Year=2022



[ Hidden Text ]

Powered by Invision Power Board
© Invision Power Services