Printable Version of Topic

Click here to view this topic in its original format

Metal Area - Extreme Music Portal _ New Releases _ Narthex - Narthex [ep] (2021)

Posted by: Funeral Frost May 14 2022, 10:02:00

http://metalarea.org/images/audiocovers/2022_May/acov_tid364784.jpg

*Artist: Narthex
*Album: Narthex [ep]
*Year: 2021
*Genre: Black Metal
*Country: United States
*Format: mp3@CBR320kbps
*Size: 56MB

Tracklist:
1. The Night Hunt 04:13
2. Forbidden Black Sorcery 04:29
3. Valley of Defilement 03:39
4. Leviathan 05:34
5. Wrath of Giants 02:51
6. Aeternum 03:49
******************************
Total playing time: 24:35

https://www.youtube.com/watch?v=arAJB_hlxq8

Technical info

Input File: 01 - The Night Hunt.mp3
Channels : 2
Sample Rate : 44100
Precision : 16-bit
Duration : 00:04:13.09 = 11161313 samples = 18981.8 CDDA sectors
File Size : 10.1M
Bit Rate : 320k
Sample Encoding: MPEG audio (layer I, II or III)
Comments :
Title=The Night Hunt
Artist=Narthex
Album=Narthex
Tracknumber=1
Year=2021



[ Hidden Text ]

Powered by Invision Power Board
© Invision Power Services