Printable Version of Topic

Click here to view this topic in its original format

Metal Area - Extreme Music Portal _ New Releases _ Muruth - Legie Oceli [ep] (2019)

Posted by: RUDACHUR May 14 2022, 11:45:35

https://metalarea.org/images/audiocovers/2022_May/acov_tid364789.jpg

*Artist: Muruth
*Album: Legie Oceli [ep]
*Year: 2019
*Genre: Black Metal
*Country: Slovakia
*Format: mp3@CBR320kbps
*Size: 61MB

Tracklist:
1. Sláva Padlým 04:17
2. Pramen Zla 03:18
3. Legie Oceli 04:33
4. Stíny v Popel 03:55
5. Morová Města 03:20
6. Solární Smrt 03:38
7. Brokovnice Řeší Problém 03:53
******************************
Total playing time: 26:54

Technical info

Input File: 01. Sláva Padlým.mp3
Channels : 2
Sample Rate : 44100
Precision : 16-bit
Duration : 00:04:17.45 = 11353721 samples = 19309 CDDA sectors
File Size : 10.3M
Bit Rate : 320k
Sample Encoding: MPEG audio (layer I, II or III)
Comments :
Title=Slava Padlym
Artist=Muruth
Album=Legie Oceli
Tracknumber=1
Year=2019
Genre=Black Metal
Discnumber=1



[ Hidden Text ]

Posted by: Storky May 24 2022, 14:50:38

true_black.gif true_black.gif

Powered by Invision Power Board
© Invision Power Services