Printable Version of Topic

Click here to view this topic in its original format

Metal Area - Extreme Music Portal _ New Releases _ Muruth - MMXX - Ubi Concordia Ibi Victoria (2020)

Posted by: RUDACHUR May 14 2022, 11:46:51

https://metalarea.org/images/audiocovers/2022_May/acov_tid364790.jpg

*Artist: Muruth
*Album: MMXX - Ubi Concordia Ibi Victoria
*Year: 2020
*Genre: Black Metal
*Country: Slovakia
*Format: mp3@CBR320kbps
*Size: 76MB

Tracklist:
1. Poslední Pevnost 04:20
2. Infanterie 04:44
3. Černé Kladivo 04:43
4. Železné Rakve 04:12
5. Ragnageddon 03:49
6. Soudce Kat 03:53
7. Řezník 04:15
8. Prapor V Ledu 03:29
******************************
Total playing time: 33:25

Technical info

Input File: 01. Poslední Pevnost.mp3
Channels : 2
Sample Rate : 44100
Precision : 16-bit
Duration : 00:04:20.75 = 11498855 samples = 19555.9 CDDA sectors
File Size : 10.4M
Bit Rate : 320k
Sample Encoding: MPEG audio (layer I, II or III)
Comments :
Title=Posledni Pevnost
Artist=Muruth
Album=MMXX - Ubi Concordia Ibi Victoria
Tracknumber=1
Year=2020
Genre=Black Metal
Discnumber=1



[ Hidden Text ]

Powered by Invision Power Board
© Invision Power Services