Printable Version of Topic

Click here to view this topic in its original format

Metal Area - Extreme Music Portal _ New Releases _ Satyam - Dance Of The Five [ep] (2022)

Posted by: Samaritianin May 14 2022, 17:50:35

https://metalarea.org/images/audiocovers/2022_May/acov_tid364806.jpg

*Artist: Satyam
*Album: Dance Of The Five [ep]
*Year: 2022
*Genre: Blackened Doom/Death Metal
*Country: France
*Format: mp3@CBR320kbps
*Size: 54MB

Tracklist:
1. Enerpigenetics 04:45
2. Advaita 06:00
3. Tale of Blasphemy 02:58
4. Guidance from the Great Ibis 04:17
5. Dance of the Five 05:30
******************************
Total playing time: 23:30

https://www.facebook.com/Satyam.metalband

Extended info
Fred Bass
Vincent Drums
Mickael Guitars
C├ędric Flament Guitars
Franck Vocals


Technical info

Input File: 05 - Dance of the Five.mp3
Channels : 2
Sample Rate : 44100
Precision : 16-bit
Duration : 00:05:30.00 = 14553000 samples = 24750 CDDA sectors
File Size : 13.4M
Bit Rate : 324k
Sample Encoding: MPEG audio (layer I, II or III)
Comments :
Title=Dance of the Five
Artist=Satyam
Album=Dance of the Five
Tracknumber=5
Year=2022-05-13
Genre=Metal
Discnumber=1



[ Hidden Text ]

Powered by Invision Power Board
© Invision Power Services