Printable Version of Topic

Click here to view this topic in its original format

Metal Area - Extreme Music Portal _ Archive _ Akuma - Plus Ultra [ep] (2022)

Posted by: kefka May 24 2022, 04:16:24

https://metalarea.org/images/audiocovers/2022_May/acov_tid365149.jpg

*Artist: Akuma
*Album: Plus Ultra [ep]
*Year: 2022
*Genre: Progressive/Technical Death Metal
*Country: United States
*Format: mp3@CBR320kbps
*Size: 58MB

Tracklist:
1.Hackerman 05:50
2.Destroyer of Worlds 05:27
3.Call of the Yeti 04:27
4.High Voltage Fist 04:50
5.Ancient Psychic Tandem War Elephant 04:46
******************************
Total playing time: 25:20

https://akumahtx.bandcamp.com/album/plus-ultra

Technical info

Input File: 02 Destroyer of Worlds.mp3
Channels : 2
Sample Rate : 44100
Precision : 16-bit
Duration : 00:05:27.60 = 14446984 samples = 24569.7 CDDA sectors
File Size : 13.2M
Bit Rate : 323k
Sample Encoding: MPEG audio (layer I, II or III)
Comments :
Title=Destroyer of Worlds
Artist=Akuma
Album=Plus Ultra
Tracknumber=02
Year=2022
Genre=Progressive/Technical Death Metal



[ Hidden Text ]

Posted by: zaqxsw May 24 2022, 14:31:56

Была здесь Akuma с альбомом 2007 г. Shrouds of the Final Nothing. Это они или нет?

Powered by Invision Power Board
© Invision Power Services