Printable Version of Topic

Click here to view this topic in its original format

Metal Area - Extreme Music Portal _ New Releases _ Deadtrees - No One Knows Who Has Been To This World (2021)

Posted by: smysl Jun 22 2022, 14:34:23

https://metalarea.org/images/audiocovers/2022_Jun/acov_tid366340.jpg

*Artist: Deadtrees
*Album: No One Knows Who Has Been To This World
*Year: 2021
*Genre: Atmospheric/Post-Black Metal
*Country: China
*Format: mp3@CBR320kbps
*Size: 111MB

Tracklist:
1. Befall 03:55
2. Order 07:31
3. No One Knows Who Has Been to This World 06:38
4. Desire and Death Inherent in the Universe 08:02
5. Increase of Entropy 07:24
6. JF1 (remix) 07:39
7. Standing of BDO 07:03
******************************
Total playing time: 48:12

https://deadtreescn.bandcamp.com

Technical info

Input File: 01 Befall.mp3
Channels : 2
Sample Rate : 44100
Precision : 16-bit
Duration : 00:03:55.28 = 10375628 samples = 17645.6 CDDA sectors
File Size : 9.58M
Bit Rate : 326k
Sample Encoding: MPEG audio (layer I, II or III)
Comments :
Title=Befall
Artist=DEADTREES
Album=No one knows who has been to this world
Tracknumber=1
Year=2021
Genre=Black Metal



[ Hidden Text ]

Powered by Invision Power Board
© Invision Power Services