Printable Version of Topic

Click here to view this topic in its original format

Metal Area - Extreme Music Portal _ New Releases _ Anatomical Amusements - Corporal Kaleidoscope (2022)

Posted by: kefka Jun 22 2022, 17:24:22

https://metalarea.org/images/audiocovers/2022_Jun/acov_tid366345.jpg

*Artist: Anatomical Amusements
*Album: Corporal Kaleidoscope
*Year: 2022
*Genre: Death Metal
*Country: Japan
*Format: mp3@CBR320kbps
*Size: 86MB

Tracklist:
1.Decay Fever 01:59
2.Fatal Scenarios 05:35
3.Trends In Pathology 06:00
4.Suppurative Fugues And Purulent Etudes 07:18
5.Cadaverism 05:53
6.Close The Chapter - Farewell In Crematory Stoves 10:00
******************************
Total playing time: 36:45

https://bizarreleprous.bandcamp.com/album/corporal-kaleidoscope

Extended info
Debut full album from Japanese death metal studio project (Pharmacist member).
For fans of Carcass – Heatwork!!!


Technical info

Input File: 01 Decay Fever.mp3
Channels : 2
Sample Rate : 44100
Precision : 16-bit
Duration : 00:01:59.91 = 5288075 samples = 8993.32 CDDA sectors
File Size : 4.94M
Bit Rate : 330k
Sample Encoding: MPEG audio (layer I, II or III)
Comments :
Title=Decay Fever
Artist=Anatomical Amusements
Album=Corporal Kaleidoscope
Tracknumber=01
Year=2022
Genre=Death Metal



[ Hidden Text ]

Posted by: Anarhist815 Jun 22 2022, 23:30:07

Видно, что эти ребята, как и я, большие фанаты альбома Каркас - Некротицизм. Пытаются изо всех сил копировать и цитировать этот альбом. Это вроде бы и неплохо, но не хватает техничных соло в духе Билла Стира.
Но в плюс альбому можно записать нормальный ДР в районе восьмерки. Есть еще люди, которые понимают, что ДР ниже 7 - это не гут.

Posted by: oathzine Jun 24 2022, 10:42:44

Flac

[ Hidden Text ]

Powered by Invision Power Board
© Invision Power Services