Printable Version of Topic

Click here to view this topic in its original format

Metal Area - Extreme Music Portal _ New Releases _ Channels - Malabarismo De Palabras En Crisis Mundial (2022)

Posted by: Samaritianin Jun 22 2022, 17:43:08

https://metalarea.org/images/audiocovers/2022_Jun/acov_tid366347.jpg

*Artist: Channels
*Album: Malabarismo De Palabras En Crisis Mundial
*Year: 2022
*Genre: Black/Heavy Metal
*Country: Costa Rica
*Format: mp3@CBR320kbps
*Size: 77MB

Tracklist:
1. Zélema 03:39
2. Cán(s)er 04:04
3. La calavera de dios 04:31
4. Némesis 03:45
5. Ora pro nobis 03:54
6. Resaca serial 04:18
7. Seis metros bajo el suelo 04:59
8. Viaje sin regreso 04:39
******************************
Total playing time: 33:49

https://channels6.bandcamp.com/album/malabarismo-de-palabras-en-crisis-mundial

Extended info
David Canales Vocals, Guitars, Bass, Programming


Technical info

Input File: 07 - Seis metros bajo el suelo.mp3
Channels : 2
Sample Rate : 44100
Precision : 16-bit
Duration : 00:04:59.33 = 13200453 samples = 22449.8 CDDA sectors
File Size : 12.0M
Bit Rate : 320k
Sample Encoding: MPEG audio (layer I, II or III)
Comments :
Title=Seis metros bajo el suelo
Artist=Channels
Album=Malabarismo de Palabras en Crisis Mundial
Tracknumber=7
Year=2022



[ Hidden Text ]

Powered by Invision Power Board
© Invision Power Services