Printable Version of Topic

Click here to view this topic in its original format

Metal Area - Extreme Music Portal _ New Releases _ Darewolf - Darewolf (2022)

Posted by: Samaritianin Jun 22 2022, 18:30:00

https://metalarea.org/images/audiocovers/2022_Jun/acov_tid366351.jpg

*Artist: Darewolf
*Album: Darewolf
*Year: 2022
*Genre: Heavy/Power Metal
*Country: Portugal
*Format: mp3@CBR320kbps
*Size: 79MB

Tracklist:
1. Darewolf - This Is... 00:44
2. Darewolf 04:04
3. Savage Poetry 03:30
4. Night Wish 07:13
5. Wicked Beast 05:08
6. Might 05:30
7. Prime 08:36
******************************
Total playing time: 34:45

https://darewolf.bandcamp.com/album/darewolf
https://www.facebook.com/darewolftheband/

Extended info
Bernardo Fernandes Bass
João Filipe Antunes Drums
Rui Pinto Guitars
Rui Baia Guitars, Vocals (backing)
Gonçalo Baia Vocals (lead)


Technical info

Input File: 07 - Prime.mp3
Channels : 2
Sample Rate : 44100
Precision : 16-bit
Duration : 00:08:36.16 = 22762612 samples = 38711.9 CDDA sectors
File Size : 20.6M
Bit Rate : 320k
Sample Encoding: MPEG audio (layer I, II or III)
Comments :
Title=Prime
Artist=DareWolf
Album=Darewolf
Tracknumber=7
Year=2022



[ Hidden Text ]

Posted by: Витон Jun 24 2022, 08:20:19

Спасибо за новую группу!!!

Powered by Invision Power Board
© Invision Power Services