Printable Version of Topic

Click here to view this topic in its original format

Metal Area - Extreme Music Portal _ New Releases _ Razzia - Siguiendo La Huella [ep] (2022)

Posted by: Samaritianin Jun 22 2022, 19:17:28

https://metalarea.org/images/audiocovers/2022_Jun/acov_tid366353.jpg

*Artist: Razzia
*Album: Siguiendo La Huella [ep]
*Year: 2022
*Genre: Heavy/Thrash Metal
*Country: Argentina
*Format: mp3@CBR320kbps
*Size: 77MB

Tracklist:
1. Danzas macabras 05:22
2. El rastro del choique 05:05
3. Parcas descalzas 05:45
4. Anunciando el final 06:23
5. Kompuchewe 06:02
6. Emperrado 05:22
******************************
Total playing time: 33:59

https://www.facebook.com/razziapatagonica

Extended info
Fabián Sepúlveda Bass
Eduardo Monticelli Drums
Pala Guitars
Leonardo Aurelio Guitars
Santiago Reyes Vocals
Leo Vocals


Technical info

Input File: 05 - Emperrado.mp3
Channels : 2
Sample Rate : 44100
Precision : 16-bit
Duration : 00:05:22.87 = 14238479 samples = 24215.1 CDDA sectors
File Size : 12.9M
Bit Rate : 320k
Sample Encoding: MPEG audio (layer I, II or III)
Comments :
Title=Emperrado
Artist=Razzia
Album=Siguiendo la huella
Tracknumber=5
Year=2022



[ Hidden Text ]

Powered by Invision Power Board
© Invision Power Services