Printable Version of Topic

Click here to view this topic in its original format

Metal Area - Extreme Music Portal _ New Releases _ Ánima Trece - Evolution (2022)

Posted by: Samaritianin Jun 22 2022, 19:58:50

https://metalarea.org/images/audiocovers/2022_Jun/acov_tid366355.jpg

*Artist: Ánima Trece
*Album: Evolution
*Year: 2022
*Genre: Heavy Metal
*Country: Spain
*Format: mp3@CBR320kbps
*Size: 89MB

Tracklist:
1. Intro 01:21
2. Irreversible 04:43
3. Espiral 04:55
4. Involución 06:27
5. Solo debería jugar 06:47
6. Es mi fin 04:49
7. Eutanasia 05:24
8. Vive el momento 04:30
******************************
Total playing time: 38:56

https://animatrece.bandcamp.com/releases
https://www.facebook.com/animatrece/

Extended info
Pablo Fernández Bass
José Manuel Drums, Vocals (additional)
José Luis Guitars
Miguel Ángel Sares Guitars, Keyboards
Enrique González Vocals


Technical info

Input File: 07 - Eutanasia.mp3
Channels : 2
Sample Rate : 44100
Precision : 16-bit
Duration : 00:05:24.83 = 14324871 samples = 24362 CDDA sectors
File Size : 13.0M
Bit Rate : 320k
Sample Encoding: MPEG audio (layer I, II or III)
Comments :
Title=Eutanasia
Artist=Anima Trece
Album=Evolution
Tracknumber=7
Year=2022



[ Hidden Text ]

Powered by Invision Power Board
© Invision Power Services