Printable Version of Topic

Click here to view this topic in its original format

Metal Area - Extreme Music Portal _ New Releases _ Aeternam - Beneath The Nightfall [single] (2022)

Posted by: Andrew Jun 22 2022, 22:05:14

http://metalarea.org/images/audiocovers/2022_Jun/acov_tid366360.jpg

*Artist: Aeternam
*Album: Beneath The Nightfall [single]
*Year: 2022
*Genre: Symphonic/Folk/Death Metal
*Country: Canada
*Format: mp3@CBR320kbps
*Size: 12MB

Tracklist:
1. Beneath the Nightfall 05:12
******************************
Total playing time: 5:12

https://www.facebook.com/aeternammetal
https://aeternam.bandcamp.com/
https://www.youtube.com/user/Aeternametal

Extended info
Antoine Guertin Drums, Percussion, Vocals, Samples (2007-present)
See also: Contemplator, ex-Southern Cross
Achraf Loudiy Vocals, Guitars (2007-present)
Mathieu Roy-Lortie Guitars (lead) (2021-present)
See also: From Dying Suns, Nearly Dead Kreatures
Hubert Gonthier Blouin Bass (2022-present)
See also: ex-Eyeless


Technical info

Input File: Aeternam - Beneath The Nightfall.mp3
Channels : 2
Sample Rate : 44100
Precision : 16-bit
Duration : 00:05:12.72 = 13790952 samples = 23454 CDDA sectors
File Size : 12.8M
Bit Rate : 327k
Sample Encoding: MPEG audio (layer I, II or III)
Comments :
Title=Beneath The Nightfall
Artist=Aeternam
Album=Beneath The Nightfall (Single)
Tracknumber=01
Year=2022
Genre=Symphonic Death Metal



[ Hidden Text ]

Powered by Invision Power Board
© Invision Power Services