Printable Version of Topic

Click here to view this topic in its original format

Metal Area - Extreme Music Portal _ New Releases _ Paxtilence - Wildfire (2022)

Posted by: Samaritianin Jun 22 2022, 22:43:42

https://metalarea.org/images/audiocovers/2022_Jun/acov_tid366361.jpg

*Artist: Paxtilence
*Album: Wildfire
*Year: 2022
*Genre: Old School Thrash Metal
*Country: Germany
*Format: mp3@CBR320kbps
*Size: 72MB

Tracklist:
1. Wildfire 02:51
2. Estrangement 04:09
3. Last Words 03:14
4. The Blood 04:00
5. The Paxtilence 02:58
6. Radiation Sickness 03:14
7. Damnation 05:54
8. Born of Ashes 04:26
******************************
Total playing time: 30:46

https://paxtilence.bandcamp.com/album/wildfire
https://www.facebook.com/Paxtilence

Extended info
Benni Bass
See also: Svarta Faran
Mende Drums
Alex Guitars
See also: ex-Torpëdo
Tobi Guitars, Vocals (2011-present)


Technical info

Input File: Paxtilence - Wildfire - 07 Damnation.mp3
Channels : 2
Sample Rate : 44100
Precision : 16-bit
Duration : 00:05:55.05 = 15657661 samples = 26628.7 CDDA sectors
File Size : 14.4M
Bit Rate : 324k
Sample Encoding: MPEG audio (layer I, II or III)
Comments :
Title=Damnation
Artist=Paxtilence
Album=Wildfire
Tracknumber=7
Year=2022



[ Hidden Text ]

Posted by: Samaritianin Jun 23 2022, 12:43:53

FLAC (Tracks) 389 mb
[ Hidden Text ]

Posted by: Vitald Jun 23 2022, 14:23:50

Заурядная качёвая трэшка.

Posted by: vosmidesijatye Jun 23 2022, 14:26:59

Лицо на обложке напоминает Рутгера Хауэра 25.gif

Posted by: Vitald Jun 23 2022, 14:32:15

ЦИТАТА(vosmidesijatye @ Jun 23 2022, 14:26:59) *
Лицо на обложке напоминает Рутгера Хауэра 25.gif

Скорее Клинта Иствуда.

Posted by: MAPhilosopher Jun 26 2022, 14:44:38

Этот жанр мертв, и они ничего не изменят в этом.

Posted by: Samaritianin Jun 26 2022, 15:05:58

ЦИТАТА(MAPhilosopher @ Jun 26 2022, 14:44:38) *
Этот жанр мертв, и они ничего не изменят в этом.

глупо считать что кто либо из музыкантов с тобой согласится и бросится реанимировать его.
Думаю что просто ребята играют только для того что им нравится этим заниматься bye.gif

Posted by: MAPhilosopher Jun 26 2022, 15:46:17

QUOTE(Samaritianin @ Jun 26 2022, 16:05:58) *
глупо считать что кто либо из музыкантов с тобой согласится и бросится реанимировать его.
Думаю что просто ребята играют только для того что им нравится этим заниматься bye.gif

Просто скучно и посредственно. bye.gif

Powered by Invision Power Board
© Invision Power Services