Printable Version of Topic

Click here to view this topic in its original format

Metal Area - Extreme Music Portal _ New Releases _ Batlord - Depressive & Aggressive [ep] (2022)

Posted by: kefka Jun 23 2022, 04:14:20

https://metalarea.org/images/audiocovers/2022_Jun/acov_tid366362.jpg

*Artist: Batlord
*Album: Depressive & Aggressive [ep]
*Year: 2022
*Genre: Black Metal
*Country: United States
*Format: mp3@CBR320kbps
*Size: 43MB

Tracklist:
1.Nothing / No One 05:02
2.They Come At Night 02:47
3.Endless Obsidian 04:53
4.Bear The Mark 03:02
******************************
Total playing time: 15:44

https://hailbatlord.bandcamp.com/album/depressive-aggressive

Technical info

Input File: 02 They Come At Night.mp3
Channels : 2
Sample Rate : 44100
Precision : 16-bit
Duration : 00:02:47.88 = 7403288 samples = 12590.6 CDDA sectors
File Size : 6.94M
Bit Rate : 331k
Sample Encoding: MPEG audio (layer I, II or III)
Comments :
Title=They Come At Night
Artist=Batlord
Album=Depressive & Aggressive
Tracknumber=02
Year=2022
Genre=Black Metal



[ Hidden Text ]

Posted by: Mencae77 Jun 23 2022, 15:14:55

This is nice!

Posted by: canadaspaceman Jun 23 2022, 15:55:23

This is the real batlord logo

https://www.metal-archives.com/images/1/8/4/184_logo.png?4011

Powered by Invision Power Board
© Invision Power Services