Printable Version of Topic

Click here to view this topic in its original format

Metal Area - Extreme Music Portal _ New Releases _ Probenation - Invasion [ep] (2022)

Posted by: kefka Jun 23 2022, 04:33:28

https://metalarea.org/images/audiocovers/2022_Jun/acov_tid366363.jpg

*Artist: Probenation
*Album: Invasion [ep]
*Year: 2022
*Genre: Heavy/Power Metal
*Country: United Kingdom
*Format: mp3@CBR320kbps
*Size: 50MB

Tracklist:
1.Space Raiders 04:44
2.Invasion 04:05
3.Extraterrestrial Heart 05:09
4.Alcohol Abduction 02:38
5.ProbeNation 05:34
******************************
Total playing time: 22:10

https://probenation.bandcamp.com/album/invasion

Technical info

Input File: 4.Alcohol Abduction.mp3
Channels : 2
Sample Rate : 44100
Precision : 16-bit
Duration : 00:02:38.58 = 6993158 samples = 11893.1 CDDA sectors
File Size : 6.48M
Bit Rate : 327k
Sample Encoding: MPEG audio (layer I, II or III)
Comments :
Title=Alcohol Abduction
Artist=ProbeNation
Album=Invasion
Tracknumber=04
Year=2022
Genre=Metal



[ Hidden Text ]

Posted by: zauber1 Jul 20 2022, 18:40:37

Наивный, но не плохой павер. В целом, если это разминка, то можно авансом послушать.

Powered by Invision Power Board
© Invision Power Services