Printable Version of Topic

Click here to view this topic in its original format

Metal Area - Extreme Music Portal _ New Releases _ Jumalhauta - Varjoissa (2022)

Posted by: Andrew Jun 23 2022, 07:18:07



*Artist: Jumalhauta
*Album: Varjoissa
*Year: 2022
*Genre: Black/Death/Doom Metal
*Country: Finland
*Format: mp3@CBR320kbps
*Size: 67MB

Tracklist:
1. Intro
2. Kalmanto
3. Aika
4. Uhrilahja
5. Varjoissa
6. Ilman Kuolemaa
7. Jääneito
8. Veri
9. Aurinko
******************************
Total playing time: 29:34

https://www.facebook.com/Jumalhauta-1471757542927886/
https://jumalhauta.bandcamp.com/
https://www.youtube.com/channel/UC4eOjTHdwOYO6HuyqvsD0MA

Extended info
Sami Sarlin Drum programming, Guitars, Bass, Vocals (2018-present)
See also: Break of Dusk, DeathRot, Path of the Fallen, Spurgu, ex-For the Crown, Surujuhla
Atte Pylväs Guitars, Bass, Vocals (2018-present)
See also: DeathRot, Spurgu, ex-Joyful Rape, ex-For the Crown, Surujuhla


Technical info

Input File: 02 - Kalmanto.mp3
Channels : 2
Sample Rate : 44100
Precision : 16-bit
Duration : 00:03:16.09 = 8647525 samples = 14706.7 CDDA sectors
File Size : 7.85M
Bit Rate : 320k
Sample Encoding: MPEG audio (layer I, II or III)
Comments :
Title=Kalmanto
Artist=Jumalhauta
Album=Varjoissa
Tracknumber=2
Year=2022



[ Hidden Text ]

Powered by Invision Power Board
© Invision Power Services