Printable Version of Topic

Click here to view this topic in its original format

Metal Area - Extreme Music Portal _ New Releases _ Werewolves - From The Cave To The Grave (2022)

Posted by: Samaritianin Jun 23 2022, 12:00:04

https://metalarea.org/images/audiocovers/2022_Jun/acov_tid366369.jpg

*Artist: Werewolves
*Album: From The Cave To The Grave
*Year: 2022
*Genre: Technical Black/Death Metal
*Country: Australia
*Format: mp3@CBR320kbps
*Size: 81MB

Tracklist:
1. Self-Help Book-Burning 04:59
2. We Are Better than You 03:43
3. All the Better to Eat You With 02:42
4. Crushing Heaven's Mandate 03:47
5. Harvest of the Skulls 04:42
6. Oedipus Tyrannus 03:38
7. Nuclear Family Holocaust 03:32
8. Pride and Extreme Prejudice 03:54
9. Watch Your Mouth 03:34
******************************
Total playing time: 34:31

https://werewolvesdeathmetal.bandcamp.com/album/from-the-cave-to-the-grave
https://www.facebook.com/werewolvesinhell/

Extended info
David Haley Drums
Matt Wilcock Guitars
Sam Bean Vocals, Bass


Technical info

Input File: 09 - Watch Your Mouth.mp3
Channels : 2
Sample Rate : 44100
Precision : 16-bit
Duration : 00:03:34.00 = 9437400 samples = 16050 CDDA sectors
File Size : 8.70M
Bit Rate : 325k
Sample Encoding: MPEG audio (layer I, II or III)
Comments :
Title=Watch Your Mouth
Artist=Werewolves
Album=From the Cave to the Grave
Tracknumber=9
Year=2022-06-24
Genre=Metal
Discnumber=1



[ Hidden Text ]

Posted by: oathzine Jun 24 2022, 10:29:21

Flac

[ Hidden Text ]

Posted by: Vitald Jun 26 2022, 14:44:02

Жирное, кайфовое рубилово. По концовке, правда, слегонца уже подъз[мат->бан]ывает. 1488.gif

Posted by: MAPhilosopher Jun 26 2022, 18:28:11

Technical... 1488.gif
Здесь нет ничего Black/Death.

Powered by Invision Power Board
© Invision Power Services