Printable Version of Topic

Click here to view this topic in its original format

Metal Area - Extreme Music Portal _ New Releases _ Victorius - Dinosaur Warfare Pt. 2 – The Great Ninja War (2022)

Posted by: necroscum Jun 23 2022, 12:05:17

https://metalarea.org/images/audiocovers/2022_Jun/acov_tid366370.jpg

*Artist: Victorius
*Album: Dinosaur Warfare Pt. 2 – The Great Ninja War
*Year: 2022
*Genre: Power Metal
*Country: Germany
*Format: mp3@CBR320kbps
*Size: 118MB

Tracklist:
01. Saurus Invictus Lazerus 01:16
02. Victorious Dinogods 04:46
03. Mighty Magic Mammoth 04:18
04. Jurassic Jetfighters 04:05
05. Dinos and Dragons 04:52
06. Katana Kingdom Rising 04:14
07. God of Roar 03:17
08. Night of the Nuclear Ninja 03:51
09. Triceps Ceratops 03:35
10. Tyrannosaurus Steel 04:08
11. Shadow of the Shinobi 03:39
12. Powerzord 04:16
13. Mighty Magic Mammoth (radio edit) 04:01
******************************
Total playing time: 50:18

https://myspace.com/victoriusone
https://www.facebook.com/victoriusmetal
https://www.instagram.com/victorius_metal/
https://www.youtube.com/watch?v=mgC_BjxfTGE

Technical info

Input File: 02 - Victorious Dinogods.mp3
Channels : 2
Sample Rate : 44100
Precision : 16-bit
Duration : 00:04:46.00 = 12612600 samples = 21450 CDDA sectors
File Size : 11.6M
Bit Rate : 326k
Sample Encoding: MPEG audio (layer I, II or III)
Comments :
Title=Victorious Dinogods
Artist=Victorius
Album=Dinosaur Warfare Pt. 2 – The Great Ninja War
Tracknumber=2
Year=2022-06-24
Discnumber=1



[ Hidden Text ]

Posted by: Cronopio Jun 23 2022, 14:08:27

Thank you.

Posted by: Витон Jun 23 2022, 15:22:56

Спасибо зав новый альбом!!

Posted by: Andrew Jul 3 2022, 19:01:23

https://victoriusgermany.bandcamp.com/album/dinosaur-warfare-pt-2-the-great-ninja-war?from=search&search_item_id=3756822893&search_item_type=a&search_match_part=%3F&search_page_id=2116148056&search_page_no=1&search_rank=7&search_sig=b7a7482a676e512ceb2adc23a221bdeb

Posted by: ---MAX--- Jul 30 2022, 07:34:32

Послушал вчера в машине. Не знаю даже. Прошлый был интереснее, хоть и однообразнее, но зато там и выделить можно было что из альбома. Тут же все пролетело как то мимо, и ни одной запоминающейся песни.

Powered by Invision Power Board
© Invision Power Services