Printable Version of Topic

Click here to view this topic in its original format

Metal Area - Extreme Music Portal _ New Releases _ Darkane - Inhuman Spirits (2022)

Posted by: Samaritianin Jun 23 2022, 12:11:34

https://metalarea.org/images/audiocovers/2022_Jun/acov_tid366372.jpg

*Artist: https://metalarea.org/forum/index.php?showtopic=27702
*Album: Inhuman Spirits
*Year: 2022
*Genre: Melodic Death/Thrash Metal
*Country: Sweden
*Format: mp3@CBR320kbps
*Size: 101MB

Tracklist:
1. Inhuman Spirits 04:42
2. Awakening 04:58
3. Embrace the Flames 03:47
4. Conspiracies of the Flesh 03:55
5. Inhaling Mental Chaos 04:06
6. Mansion of Torture 05:31
7. The Quintessence of Evil 05:44
8. A Spiral to Nothing 04:57
9. The Great Deceiver 04:03
10. Vålnader 01:35
******************************
Total playing time: 43:18

https://www.facebook.com/darkane

Extended info
Jörgen Löfberg Bass
Peter Wildoer Drums
Klas Ideberg Guitars
Christofer Malmström Guitars
Lawrence Mackrory Vocals



Technical info

Input File: 07 - The Quintessence Of Evil.mp3
Channels : 2
Sample Rate : 44100
Precision : 16-bit
Duration : 00:05:43.00 = 15126300 samples = 25725 CDDA sectors
File Size : 13.8M
Bit Rate : 322k
Sample Encoding: MPEG audio (layer I, II or III)
Comments :
Title=The Quintessence Of Evil
Artist=Darkane
Album=Inhuman Spirits
Tracknumber=7
Year=2022-06-24
Genre=Rock
Discnumber=1



[ Hidden Text ]

Posted by: Cronopio Jun 23 2022, 14:05:27

Thank you.

Posted by: dm666 Jun 23 2022, 15:56:48

Lossless: FLAC (tracks)
[ Hidden Text ]

Posted by: sadmannn Jun 23 2022, 19:55:05

Единственные, что сегодня порадовали
Нормальная крепкая работа, современная, разноплановая

Posted by: DenisKov Jul 15 2022, 13:59:09

Mansion of Torture норм трек, остальное не так интересно вышло.

Posted by: 6666666 Jul 15 2022, 14:04:43

ЦИТАТА(sadmannn @ 23rd June 2022 - 21:55:05) *
современная

Корчик есть?

Posted by: AnthonyHipHopkins Jul 16 2022, 16:16:40

QUOTE(DenisKov @ Jul 15 2022, 14:59:09) *
Mansion of Torture норм трек, остальное не так интересно вышло.

В-общем да, я бы еще отметил Inhuman Spirits, The Quintessence of Evil, A Spiral to Nothing - по-слабее, но слушать можно; остальное мимо.
Неплохое звучание накрутили, но вокалист их новый всё же хиловат для такой музыки.

Powered by Invision Power Board
© Invision Power Services