Printable Version of Topic

Click here to view this topic in its original format

Metal Area - Extreme Music Portal _ New Releases _ Knoll - Metempiric (2022)

Posted by: necroscum Jun 23 2022, 12:42:10

https://metalarea.org/images/audiocovers/2022_Jun/acov_tid366378.jpg

*Artist: Knoll
*Album: Metempiric
*Year: 2022
*Genre: Grindcore
*Country: United States
*Format: mp3@CBR320kbps
*Size: 81MB

Tracklist:
01. Clepsydra 2:29
02. Felled Plume 2:02
03. Throe of Upheaval 2:19
04. Burgeoning Pillars 1:23
05. Dislimned 1:40
06. Gild of Blotted Lucre 1:40
07. Tether and Swine 2:17
08. Of Troth to Atom 3:52
09. Marred Alb 1:44
10. Flux of Knowing 1:53
11. The Dwelt Withe 0:53
12. Whelm 3:02
13. Tome 8:17
******************************
Total playing time: 33:31

https://www.facebook.com/KnollVHS
https://www.instagram.com/knollgrind/
https://knollgrind.bandcamp.com/album/metempiric
https://www.youtube.com/watch?v=tgqMHJsDJ4M

Technical info

Input File: 02. Felled Plume.mp3
Channels : 2
Sample Rate : 44100
Precision : 16-bit
Duration : 00:02:02.00 = 5380244 samples = 9150.07 CDDA sectors
File Size : 5.06M
Bit Rate : 332k
Sample Encoding: MPEG audio (layer I, II or III)
Comments :
Title=Felled Plume
Artist=Knoll
Album=Metempiric
Tracknumber=2
Year=2022
Discnumber=1/1



[ Hidden Text ]

Powered by Invision Power Board
© Invision Power Services