Printable Version of Topic

Click here to view this topic in its original format

Metal Area - Extreme Music Portal _ New Releases _ Milking The Goatmachine - Nach Uns Die Grindflut (2022)

Posted by: necroscum Jun 23 2022, 12:53:00

https://metalarea.org/images/audiocovers/2022_Jun/acov_tid366379.jpg

*Artist: https://metalarea.org/forum/index.php?showtopic=197492
*Album: Nach Uns Die Grindflut
*Year: 2022
*Genre: Death Metal/Grindcore
*Country: Germany
*Format: mp3@CBR320kbps
*Size: 101MB

Tracklist:
01. Piccolo im Streichelzoo 02:10
02. Kackeball 04:05
03. Rettet den Wald...esst mehr Biber 03:14
04. Raus mit die Viecher 03:42
05. Am Zaun der Zeit 02:44
06. Ein Stall am W├Ârthersee 03:29
07. Stallhalla 03:41
08. Waddema 00:39
09. Ein Brett im Kornfeld 03:19
10. Ist der Huf erst ruiniert 02:46
11. Mutter der Mann mit der Milch ist da 03:09
12. Warum liegt hier Stroh 02:53
13. Magermilch Mambo 02:53
14. Nach uns die Grindflut 03:47
******************************
Total playing time: 42:31

https://myspace.com/milkingthegoatmachine
https://www.facebook.com/milkingthegoatmachine
https://www.youtube.com/watch?v=Ppkdo5pVJxQ

Technical info

Input File: 02. Kackeball.mp3
Channels : 2
Sample Rate : 44100
Precision : 16-bit
Duration : 00:04:05.00 = 10804500 samples = 18375 CDDA sectors
File Size : 10.0M
Bit Rate : 327k
Sample Encoding: MPEG audio (layer I, II or III)
Comments :
Title=Kackeball
Artist=Milking the Goatmachine
Album=Nach uns die Grindflut
Tracknumber=2
Year=2022
Genre=Death Metal, Crust
Discnumber=1



[ Hidden Text ]

Posted by: oathzine Jun 24 2022, 10:21:59

Flac

[ Hidden Text ]

Powered by Invision Power Board
© Invision Power Services