Printable Version of Topic

Click here to view this topic in its original format

Metal Area - Extreme Music Portal _ New Releases _ Intoxicated - Watch You Burn (2022)

Posted by: Samaritianin Jun 23 2022, 12:57:39

https://metalarea.org/images/audiocovers/2022_Jun/acov_tid366380.jpg

*Artist: Intoxicated
*Album: Watch You Burn
*Year: 2022
*Genre: Thrash/Death Metal
*Country: United States
*Format: mp3@CBR320kbps
*Size: 74MB

Tracklist:
1. Assholian Mode 03:23
2. Grovel 02:28
3. Watch You Burn 03:22
4. Legacy's Demise 02:52
5. Majestic Eyes 03:18
6. Force Fed 03:03
7. Dumpster Dive 03:17
8. Revelation Denied 03:29
9. Analyze 02:48
10. Inevitable End 03:55
******************************
Total playing time: 31:55

https://intoxicatedflorida.bandcamp.com/album/watch-you-burn
https://www.facebook.com/intoxicatedFL/

Extended info
Gregg Roberts Bass, Vocals (backing)
Mike Radford Drums
John Sutton Guitars
Erik Payne Guitars, Vocals (lead)


Technical info

Input File: 07 - Dumpster Dive.mp3
Channels : 2
Sample Rate : 44100
Precision : 16-bit
Duration : 00:03:17.00 = 8687700 samples = 14775 CDDA sectors
File Size : 8.05M
Bit Rate : 327k
Sample Encoding: MPEG audio (layer I, II or III)
Comments :
Title=Dumpster Dive
Artist=Intoxicated
Album=Watch You Burn
Tracknumber=7
Year=2022-06-24
Genre=Alternative
Discnumber=1



[ Hidden Text ]

Posted by: Storky Jul 5 2022, 15:08:56

Nice one, old school riffs and anger

Powered by Invision Power Board
© Invision Power Services