Printable Version of Topic

Click here to view this topic in its original format

Metal Area - Extreme Music Portal _ New Releases _ Hats Barn - Y​.​a​.​HW​.​e​.​H (2022)

Posted by: kefka Jun 23 2022, 13:38:47

https://metalarea.org/images/audiocovers/2022_Jun/acov_tid366382.jpg

*Artist: https://metalarea.org/forum/index.php?showtopic=228407
*Album: Y​.​a​.​HW​.​e​.​H
*Year: 2022
*Genre: Black Metal
*Country: France
*Format: mp3@CBR320kbps
*Size: 105MB

Tracklist:
1.Opening - Ten Psalms Of Death And Khaos 02:37
2.Baal-Zebub 04:53
3.YHWH 02:10
4.In Nomine Leprosy 04:06
5.Under the pillars of daath 04:09
6.Total Death Kult 05:47
7.Walpurgis of Seth 03:12
8.Absence of faith 04:36
9.Que le sang coule dans les fleuves 04:16
10.The man returns to dust 06:44
******************************
Total playing time: 42:30

https://hatsbarn.bandcamp.com/album/y-a-hw-e-h

Technical info

Input File: 07 - L'enfant doit mourir.mp3
Channels : 2
Sample Rate : 44100
Precision : 16-bit
Duration : 00:03:13.22 = 8520782 samples = 14491.1 CDDA sectors
File Size : 7.96M
Bit Rate : 329k
Sample Encoding: MPEG audio (layer I, II or III)
Comments :
Title=L'enfant doit mourir
Artist=Hats Barn
Album=Y.a.HW.e.H
Tracknumber=07
Year=2022
Genre=Black Metal



[ Hidden Text ]

Posted by: vosmidesijatye Jun 23 2022, 20:01:14

Daale, как те?

Powered by Invision Power Board
© Invision Power Services