Printable Version of Topic

Click here to view this topic in its original format

Metal Area - Extreme Music Portal _ New Releases _ Scorching Tomb - Rotting Away [ep] (2022)

Posted by: kefka Jun 23 2022, 13:53:11

https://metalarea.org/images/audiocovers/2022_Jun/acov_tid366384.jpg

*Artist: Scorching Tomb
*Album: Rotting Away [ep]
*Year: 2022
*Genre: Death Metal
*Country: Canada
*Format: mp3@CBR320kbps
*Size: 47MB

Tracklist:
1.Warpath 03:22
2.Bloodlust Sacrifice 04:19
3.Rotting Away 03:24
4.Only Death Remains 03:57
5.Skin Ripper 05:05
******************************
Total playing time: 20:07

https://scorchingtomb.bandcamp.com/album/rotting-away?from=embed

Technical info

Input File: 01. Warpath.mp3
Channels : 2
Sample Rate : 44100
Precision : 16-bit
Duration : 00:03:22.23 = 8918255 samples = 15167.1 CDDA sectors
File Size : 8.19M
Bit Rate : 324k
Sample Encoding: MPEG audio (layer I, II or III)
Comments :
Title=Warpath
Artist=Scorching Tomb
Album=Rotting Away
Tracknumber=1
Year=2022
Discnumber=1/1



[ Hidden Text ]

Posted by: oathzine Jun 24 2022, 10:07:43

Flac

[ Hidden Text ]

Powered by Invision Power Board
© Invision Power Services