Printable Version of Topic

Click here to view this topic in its original format

Metal Area - Extreme Music Portal _ New Releases _ Serpent Spawn - Serpent Spawn [ep] (2022)

Posted by: kefka Jun 23 2022, 14:13:30

https://metalarea.org/images/audiocovers/2022_Jun/acov_tid366387.jpg

*Artist: Serpent Spawn
*Album: Serpent Spawn [ep]
*Year: 2022
*Genre: Death Metal
*Country: Germany
*Format: mp3@CBR320kbps
*Size: 33MB

Tracklist:
1.Crypt Of Torment 02:58
2.Conquering The Trinity 03:44
3.Carnage Divine 03:53
4.Skinned And Gutted 03:41
******************************
Total playing time: 14:16

https://ironboneheadproductions.bandcamp.com/album/serpent-spawn-crypt-of-torment?from=embed

Extended info
Line up:
Martin Witchskinner (Blood) - vocal, guitar, bass
Rob Wenglorz (ex-Blood, ex-Dawn) - guitar
Markus Winterstein (Malaphar) - drums


Technical info

Input File: 01. Crypt of Torment.mp3
Channels : 2
Sample Rate : 44100
Precision : 16-bit
Duration : 00:02:59.06 = 7896370 samples = 13429.2 CDDA sectors
File Size : 7.60M
Bit Rate : 340k
Sample Encoding: MPEG audio (layer I, II or III)
Comments :
Title=Crypt of Torment
Artist=Serpent Spawn
Album=Crypt of Torment
Tracknumber=1/4
Year=2022
Discnumber=1/1



[ Hidden Text ]

Posted by: oathzine Jun 24 2022, 10:01:41

Flac

[ Hidden Text ]

Posted by: igore2911 Jun 25 2022, 09:20:03

Так себе, до BLOOD далеко.

Posted by: Storky Jul 6 2022, 13:58:47

Fine Classic DM

Powered by Invision Power Board
© Invision Power Services