Printable Version of Topic

Click here to view this topic in its original format

Metal Area - Extreme Music Portal _ New Releases _ Serpents Oath - Ascension (2022)

Posted by: necroscum Jun 23 2022, 15:06:34

https://metalarea.org/images/audiocovers/2022_Jun/acov_tid366389.jpg

*Artist: Serpents Oath
*Album: Ascension
*Year: 2022
*Genre: Black Metal
*Country: Belgium
*Format: mp3@CBR320kbps
*Size: 97MB

Tracklist:
01. Invocation Pestum 00:40
02. Summoning the Ancients 04:37
03. Thy Mighty Serpent 05:27
04. Invocation Perversum 00:51
05. Blasphemy 03:52
06. Bring Down the Sun 04:56
07. Invocation Maledictum 00:36
08. Sworn to the Oath 04:53
09. Of Fang and Claw 03:58
10. Invocation Infectum 00:34
11. Death the Destroyer 05:08
12. Blood Moon 05:54
******************************
Total playing time: 41:26

https://www.facebook.com/serpentsoath/
https://www.instagram.com/serpentsoath/
https://www.youtube.com/watch?v=Kz3PqHx1M1o

Technical info

Input File: 02 - Summoning the Ancients.mp3
Channels : 2
Sample Rate : 44100
Precision : 16-bit
Duration : 00:04:37.00 = 12215700 samples = 20775 CDDA sectors
File Size : 11.2M
Bit Rate : 324k
Sample Encoding: MPEG audio (layer I, II or III)
Comments :
Title=Summoning the Ancients
Artist=Serpents Oath
Album=Ascension
Tracknumber=2
Year=2022-06-24
Genre=Metal
Discnumber=1



[ Hidden Text ]

Posted by: horna777 Jun 23 2022, 18:42:29

thanks upload excellent release cheers!!!!!

Posted by: frostdomain Jun 24 2022, 00:53:50

320
[ Hidden Text ]

Posted by: Satanspell Jun 24 2022, 12:30:23

Достойный альбом: трушный, мелодичный, скоростной, без соплей. Парни явно вдохновляются шведским блеком. Местами явно проскальзывает Мардук, но без их фирменной суппостатской долбежности и хаоса. Примечательно , что в группе играют три скинхеда не первой молодости и свежести. Молодцы, парни, так держать Blasphemy!!!!!!

Posted by: squall8fr Jun 24 2022, 16:57:22

https://soulsellerrecords.bandcamp.com/album/ascension

Powered by Invision Power Board
© Invision Power Services