Printable Version of Topic

Click here to view this topic in its original format

Metal Area - Extreme Music Portal _ New Releases _ Guillotine A.D. - Born To Fall (2022)

Posted by: Samaritianin Jun 23 2022, 15:10:48

https://metalarea.org/images/audiocovers/2022_Jun/acov_tid366390.jpg

*Artist: Guillotine A.D.
*Album: Born To Fall
*Year: 2022
*Genre: Death Metal
*Country: United States
*Format: mp3@CBR320kbps
*Size: 110MB

Tracklist:
1. Vultures of Paradise
2. Exile
3. War First
4. Spiritual Insect
5. I Want to Believe
6. Born to Fall
7. Hammer
8. Madness of the Gods
******************************
Total playing time: 47:27

https://guillotinead.bandcamp.com/album/born-to-fall
https://www.facebook.com/guillotine.ad1

Extended info
Adam Miller Bass, Vocals
See also: Wicked King
Evan Posey Drums
See also: Wicked King
Lance Miller Guitars, Vocals (backing)
See also: ex-Maha Pralaya



Technical info

Input File: 07. Hammer.mp3
Channels : 2
Sample Rate : 44100
Precision : 16-bit
Duration : 00:06:02.00 = 15964200 samples = 27150 CDDA sectors
File Size : 14.7M
Bit Rate : 325k
Sample Encoding: MPEG audio (layer I, II or III)
Comments :
Title=Hammer
Artist=Guillotine A.D.
Album=Born to Fall
Tracknumber=7
Year=2022
Genre=Death/Doom
Discnumber=1



[ Hidden Text ]

Posted by: Samaritianin Jun 24 2022, 00:51:15

FLAC (Tracks) 503 mb
[ Hidden Text ]

Posted by: Vitald Jun 26 2022, 15:58:18

Чёткое мясо.

Posted by: Thrashman Jul 9 2022, 07:30:24

320kb/111MB

[ Hidden Text ]

[ Hidden Text ]

Posted by: INDARKNESS Jul 9 2022, 08:34:44

[ Hidden Text ]
p.s. flac есть на рутрекере.

Powered by Invision Power Board
© Invision Power Services