Printable Version of Topic

Click here to view this topic in its original format

Metal Area - Extreme Music Portal _ New Releases _ Chaos Frame - Entropy (2022)

Posted by: necroscum Jun 23 2022, 15:28:55

https://metalarea.org/images/audiocovers/2022_Jun/acov_tid366393.jpg

*Artist: Chaos Frame
*Album: Entropy
*Year: 2022
*Genre: Progressive Metal
*Country: United States
*Format: mp3@CBR320kbps
*Size: 100MB

Tracklist:
01. The Timepiece Shatters - Entropy, Pt. I 04:57
02. To Reap and Never Sow 05:01
03. Skyscraper 07:08
04. Solaire 03:45
05. Voluntary Extinction 03:49
06. Always Looking Down 08:57
07. The Late Goodbye 05:05
08. Forever is Nothing - Entropy, Pt. II 04:46
******************************
Total playing time: 43:28

https://www.facebook.com/chaosframe
https://www.reverbnation.com/chaosframeband
https://www.youtube.com/watch?v=FhFeI1FBDg4

Technical info

Input File: 02 - To Reap and Never Sow.mp3
Channels : 2
Sample Rate : 44100
Precision : 16-bit
Duration : 00:05:01.00 = 13274100 samples = 22575 CDDA sectors
File Size : 12.2M
Bit Rate : 324k
Sample Encoding: MPEG audio (layer I, II or III)
Comments :
Title=To Reap And Never Sow
Artist=Chaos Frame
Album=Entropy
Tracknumber=2
Year=2022-06-24
Discnumber=1



[ Hidden Text ]

Powered by Invision Power Board
© Invision Power Services