Printable Version of Topic

Click here to view this topic in its original format

Metal Area - Extreme Music Portal _ New Releases _ Paganizer - 20 Years In A Terminal Grip [compilation] (2014)

Posted by: Carcharoth Jun 23 2022, 16:27:29

http://metalarea.org/images/audiocovers/2022_Jun/acov_tid366394.jpg

*Artist: http://metalarea.org/forum/index.php?showtopic=44438
*Album: 20 Years In A Terminal Grip [compilation]
*Year: 2014
*Genre: Death Metal
*Country: Sweden
*Format: mp3@CBR320kbps
*Size: 313MB

Tracklist:

CD 01:
01. Nailed Forever 04:03
02. Bleed Unto Me 04:51
03. Among The Unknowing Dead 03:35
04. Scandinavian Warmachine 03:30
05. Even In Hell 03:53
06. You Call It Deviance 03:39
07. Frontier Cthulhu 04:02
08. Life Slips Away 03:52
09. Meateater 03:29
10. Colder 03:54
11. Just Here Rotting 03:31
12. Landscapes Made Of Human Skin 03:22
13. Crusader 02:35
14. On Your Knees 03:54
15. The Cadaverous 03:37
16. Beyond Redemption 05:23
17. Mass Of Parasites 03:42
18. No Divine Rapture 04:05
19. Their Skin Suits Me 03:35


CD 02:
01. Natures Bleeding 02:27
02. Religious Cancer 03:26
03. Viking Hammer 03:02
04. Blood On The Axe 02:52
05. Ode To The Horde 02:55
06. The Cyclone Empire 04:07
07. This Place Is Rot 03:08
08. Gasmask Obsession 02:06
09. Abortion Van 02:15
10. Hell Is Already Here 02:16
11. Massdeath Maniac 03:08
12. Army Of Maggots 03:05
13. Flesh Collector 02:46
14. The Morbidly Obscene 03:37
15. The Festering Of Sores 03:36
16. The Return Of Horror 03:11
17. Born To Be Buried Alive 02:23
18. Carbonized Resurrection 03:28
19. Flesh Nest 01:50
20. Vaken Mardröm 01:08
21. Nothing Really Matters 03:41
22. This Place Of Dying 02:29
23. Morbid Warfare 03:38
24. Grinded & Exiled v1.0 00:51
25. Fleshnaut v1.0 01:47
26. Buried Alive 02:25
27. NY Ripper 02:19
******************************
Total playing time: 02:26:29

https://cycloneempire.bandcamp.com/album/20-years-in-a-terminal-grip-best-of

Extended info
Password: metalarea.org

Enjoy!
smile1.gif


Technical info

Input File: 101-paganizer-nailed_forever.mp3
Channels : 2
Sample Rate : 44100
Precision : 16-bit
Duration : 00:04:03.17 = 10723841 samples = 18237.8 CDDA sectors
File Size : 9.73M
Bit Rate : 320k
Sample Encoding: MPEG audio (layer I, II or III)
Comments :
Title=Nailed Forever
Artist=Paganizer
Album=20 Years In A Terminal Grip
Tracknumber=1/19
Year=2014
Genre=Death Metal
Discnumber=1/2



[ Hidden Text ]

Posted by: swed Jun 24 2022, 07:39:13

Total playing time: 02:26:29
Редкая птица долетит до середины Днепра...

Posted by: igore2911 Jun 25 2022, 08:51:33

Довольно бодрый материал

Posted by: swed Aug 4 2022, 11:48:18

ЦИТАТА(igore2911 @ Jun 25 2022, 10:51:33) *
Довольно бодрый материал

Значит, не только я это "осилил" - прослушать более 2 часов Роггу, это много стоит smile3.gif
Но, "шутки в сторону" - на самом деле, действительно, бОльшая часть материала действительно хороша и "бодра" (более медленные и мелодичные вещи на этом сборнике есть, но их совсем мало)
Одна "беда" - разный звук, но в данном случае это неизбежно...

Powered by Invision Power Board
© Invision Power Services