Printable Version of Topic

Click here to view this topic in its original format

Metal Area - Extreme Music Portal _ New Releases _ Acts Of God - Believe (2022)

Posted by: Necrokilldozer Jun 23 2022, 18:36:12

http://metalarea.org/images/audiocovers/2022_Jun/acov_tid366399.jpg

*Artist: Acts Of God
*Album: Believe
*Year: 2022
*Genre: Metalcore
*Country: Spain
*Format: mp3@CBR320kbps
*Size: 77MB

Tracklist:
1. Life Is Pain 04:31
2. Hate 03:27
3. Beneath Your Grave 04:11
4. Strongest Son 03:47
5. The Cross 04:22
6. Patient Zero 04:10
7. Like a Wolf 04:40
8. Naphthalene 03:50
******************************
Total playing time: 32:58

Extended info
Line - up:

Eric Cabestany - Drums
Abel Marín - Guitars (ex-Spoyler)
Quico Bertran - Guitars
Xevi Poll - Vocals
David Cervantes - Bass




Technical info

Input File: 07 - Like a Wolf.mp3
Channels : 2
Sample Rate : 44100
Precision : 16-bit
Duration : 00:04:33.00 = 12039300 samples = 20475 CDDA sectors
File Size : 10.9M
Bit Rate : 320k
Sample Encoding: MPEG audio (layer I, II or III)
Comments :
Title=Like a Wolf
Artist=Acts of God
Album=Believe
Tracknumber=7
Year=2022-06-24
Genre=Metalcore



[ Hidden Text ]

Posted by: CTPEMLEHIE Jun 24 2022, 06:56:47

Знаю их. Материал должен быть интересным.

Posted by: CTPEMLEHIE Jun 24 2022, 19:57:05

Ужасно. Всё испортило желание соответствовать шаблонному металкору.

Powered by Invision Power Board
© Invision Power Services