Printable Version of Topic

Click here to view this topic in its original format

Metal Area - Extreme Music Portal _ New Releases _ Chaotian - Effigies Of Obsolescence (2022)

Posted by: Samaritianin Jun 23 2022, 23:42:15

https://metalarea.org/images/audiocovers/2022_Jun/acov_tid366408.jpg

*Artist: Chaotian
*Album: Effigies Of Obsolescence
*Year: 2022
*Genre: Death Metal
*Country: Denmark
*Format: mp3@CBR320kbps
*Size: 92MB

Tracklist:
1. Gangrene Dream 06:19
2. Into Megatopheth 05:37
3. Effigies of Obsolescence 06:21
4. Adipocere Feast 04:59
5. Etched Shadows 06:40
6. Fustuarium 04:53
7. Festering Carcinolith 05:46
******************************
Total playing time: 40:35

https://chaotian.bandcamp.com/album/effigies-of-obsolescence
https://www.facebook.com/ChaotianOfficial

Extended info
Jonas Grønborg Bass (2017-present)
Andreas Nordgreen Drums, Vocals (2017-present)
See also: Hectichaos, Phrenelith, Sequestrum
Søren Willatzen Guitars, Vocals (2017-present)
See also: Lindorm, Sequestrum, ex-Accursed Years


Technical info

Input File: 07 - Festering Carcinolith.mp3
Channels : 2
Sample Rate : 44100
Precision : 16-bit
Duration : 00:06:08.00 = 16228800 samples = 27600 CDDA sectors
File Size : 14.9M
Bit Rate : 324k
Sample Encoding: MPEG audio (layer I, II or III)
Comments :
Title=Festering Carcinolith
Artist=Chaotian
Album=Effigies Of Obsolecence
Tracknumber=7
Year=2022-06-24
Genre=Rock
Discnumber=1



[ Hidden Text ]

Posted by: Samaritianin Jun 24 2022, 02:29:05

FLAC (Tracks) 298 mb
[ Hidden Text ]

Posted by: troll_swamp Jul 26 2022, 07:56:37

Заслушал эти ребят ещё на демо компиляхе, пришлись по вкусу.
Ждал альбом, интересно было что накрутят.
Накрутили Инкантатион/Имолатион/Суфокатион, если можно так сказать плюс минус.
Никаких тут кипятковых ручейков не будет, и откровений тоже, хороший крепкий альбом без восторгов и охов ахов.
Посмотрим что будет дальше, как разовьются парни.
А пока через время переслушаю этот альбум ещё раз, по обычной схеме так сказать.
Спасибо за релиз metaler.gif 9.gif metaler.gif

Powered by Invision Power Board
© Invision Power Services