Printable Version of Topic

Click here to view this topic in its original format

Metal Area - Extreme Music Portal _ New Releases _ Hautajaisyö - Ei Hauta Kysy Lupaa (2022)

Posted by: kefka Aug 4 2022, 14:56:51

https://metalarea.org/images/audiocovers/2022_Aug/acov_tid367940.jpg

*Artist: Hautajaisyö
*Album: Ei Hauta Kysy Lupaa
*Year: 2022
*Genre: Death/Thrash Metal
*Country: Finland
*Format: mp3@CBR320kbps
*Size: 85MB

Tracklist:
1.Kunnes hajoan 05:11
2.Harhaluulo 03:33
3.Askel 03:44
4.Kuuleeko kukaan 03:57
5.Kärsimys 03:40
6.Lohduton 05:03
7.Elämä lakkaa 04:32
8.Hiljaisuuden vankila 05:35
******************************
Total playing time: 35:15

https://hautajaisyo.bandcamp.com/album/ei-hauta-kysy-lupaa

Technical info

Input File: 02. Harhaluulo.mp3
Channels : 2
Sample Rate : 44100
Precision : 16-bit
Duration : 00:03:33.46 = 9413630 samples = 16009.6 CDDA sectors
File Size : 8.70M
Bit Rate : 326k
Sample Encoding: MPEG audio (layer I, II or III)
Comments :
Title=Harhaluulo
Artist=Hautajaisyö
Album=Ei Hauta Kysy Lupaa
Tracknumber=02
Year=2022
Genre=Death/Thrash
Discnumber=1/1



[ Hidden Text ]
[ Hidden Text ]
[ Hidden Text ]

Powered by Invision Power Board
© Invision Power Services